<?xml version="1.0" standalone="no"?>
<!DOCTYPE svg PUBLIC "-//W3C//DTD SVG 1.1//EN" "http://www.w3.org/Graphics/SVG/1.1/DTD/svg11.dtd" >
<svg xmlns="http://www.w3.org/2000/svg">
<metadata>Generated by IcoMoon</metadata>
<defs>
<font id="fwdigp" horiz-adv-x="1024">
<font-face units-per-em="1024" ascent="960" descent="-64" />
<missing-glyph horiz-adv-x="1024" />
<glyph unicode="&#x20;" horiz-adv-x="512" d="" />
<glyph unicode="&#xe900;" glyph-name="10" d="M237.073 431.151l-51.2-25.971c-15.276-7.791-19.695-23.39-9.993-35.277 9.702-11.883 30.036-15.787 45.986-8.823v-172.292h-17.067c-18.851 0-34.133-11.627-34.133-25.971s15.282-25.971 34.133-25.971h102.4c18.851 0 34.133 11.627 34.133 25.971s-15.282 25.971-34.133 25.971h-17.067v220.757c-0.002 9.574-6.93 18.372-18.026 22.891-11.096 4.523-24.561 4.028-35.034-1.284zM493.948 136.845c45.316 0 82.052 29.069 82.052 64.926v168.811c0 35.861-36.736 64.93-82.052 64.93h-49.229c-45.317 0-82.052-29.069-82.052-64.93v-168.811c0-35.857 36.736-64.926 82.052-64.926h49.229zM428.309 201.771v168.811c0 7.172 7.347 12.988 16.41 12.988h49.229c9.062 0 16.41-5.815 16.41-12.988v-168.811c0-7.172-7.347-12.983-16.41-12.983h-49.229c-9.062 0-16.41 5.811-16.41 12.983zM182.603 597.904c-16.010 16.61-15.915 42.999 0.286 59.492l98.381 98.381c16.684 16.388 43.493 16.297 60.063-0.274l14.013-14.013c8.923-8.923 8.923-23.391 0-32.314-0.070-0.070-0.14-0.14-0.208-0.211l-38.792-38.792h54.711c0.148-0.003 0.297-0.004 0.447-0.004h396.497c23.565 0 42.667-19.103 42.667-42.667v-448c0-23.369-18.786-42.347-42.078-42.662h-86.519c-23.040 0.311-41.673 18.893-42.069 41.916v1.493c0.401 23.219 19.345 41.92 42.658 41.92h42.667c0.201 0 0.397 0 0.593 0.004l-0.593-0.004 0.017 362.671h-408.996l38.575-38.574c0.139-0.146 0.28-0.291 0.425-0.435 8.924-8.924 8.923-23.391-0.002-32.317l-14.013-14.007c-16.471-16.474-43.063-16.666-59.765-0.563l-98.961 98.96z" />
<glyph unicode="&#xe901;" glyph-name="blogger" d="M835.925 525.227c-14.421 6.144-76.245-0.683-93.397 14.805-12.117 11.179-12.885 31.403-17.621 58.368-7.936 45.184-11.221 55.424-19.456 73.216-29.995 63.403-101.845 117.717-167.125 117.717h-151.339c-119.040 0-216.32-97.152-216.32-215.765v-251.563c0-118.4 97.28-215.339 216.32-215.339h248.619c119.040 0 215.68 96.939 216.363 215.339l1.365 174.208c0 0 0 21.547-17.408 29.013zM389.717 612.992h119.979c22.869 0 41.429-18.475 41.429-41.045 0-22.613-18.56-41.259-41.429-41.259h-119.979c-22.869 0-41.429 18.688-41.429 41.259 0 22.613 18.56 41.045 41.429 41.045zM633.557 284.117h-243.84c-22.869 0-41.429 18.688-41.429 41.045 0 22.571 18.56 41.045 41.429 41.045h243.84c22.656 0 41.216-18.475 41.216-41.045 0-22.357-18.56-41.045-41.216-41.045z" />
<glyph unicode="&#xe902;" glyph-name="buffer" d="M198.195 616.19l308.19-148.346c3.575-1.719 7.74-1.719 11.315 0l308.19 148.348c9.852 4.738 9.852 18.765 0 23.505l-308.194 148.343c-3.571 1.72-7.74 1.72-11.315 0l-308.186-148.345c-9.852-4.739-9.852-18.765 0-23.505zM198.15 436.25l308.189-148.348c3.575-1.719 7.744-1.719 11.319 0l308.19 148.343c9.852 4.74 9.852 18.769 0 23.509l-65.024 31.296-206.515-99.401c-13.12-6.31-27.75-9.647-42.313-9.647-14.558 0-29.184 3.337-42.325 9.655l-206.496 99.401-65.027-31.3c-9.85-4.745-9.85-18.773 0.002-23.509zM825.852 279.812l-65.024 31.3-206.515-99.405c-13.12-6.315-27.75-9.647-42.308-9.647-14.562 0-29.188 3.332-42.33 9.655l-206.496 99.396-65.027-31.3c-9.852-4.745-9.852-18.765 0-23.509l308.191-148.348c3.575-1.719 7.74-1.719 11.315 0l308.19 148.348c9.856 4.745 9.856 18.769 0.004 23.509z" />
<glyph unicode="&#xe903;" glyph-name="cast" d="M239.537 746.945c-37.9 0-68.874-30.974-68.874-68.874v-99.148h77.199v90.822h528.283v-443.212h-178.816v-77.201h187.145c37.897 0 68.873 30.976 68.873 68.877v459.861c0 37.9-30.976 68.874-68.873 68.874h-544.937zM178.988 499.004h-8.326v-77.201h8.326c146.773 0 264.143-117.372 264.143-264.141v-8.329h77.197v8.329c0 189.269-152.070 341.342-341.34 341.342zM178.988 377.903h-8.326v-77.197h8.326c80.169 0 143.046-62.878 143.046-143.044v-8.329h77.199v8.329c0 122.667-97.577 220.241-220.244 220.241zM178.988 256.806h-8.326v-107.473h107.473v8.329c0 56.064-43.084 99.145-99.148 99.145z" />
<glyph unicode="&#xe904;" glyph-name="CC" d="M490.667 597.333h-170.667v-298.667h170.667v74.667h-96v149.333h96v74.667zM704 597.333h-170.667v-298.667h170.667v74.667h-96v149.333h96v74.667zM204.8 669.867h614.4v-443.733h-614.4v443.733zM192 746.667c-35.346 0-64-28.654-64-64v-469.333c0-35.345 28.654-64 64-64h640c35.345 0 64 28.655 64 64v469.333c0 35.346-28.655 64-64 64h-640z" />
<glyph unicode="&#xe905;" glyph-name="CC-off" d="M704 357.76v15.573h-15.573l15.573-15.573zM608 453.76v68.907h96v74.667h-170.667v-68.907l74.667-74.667zM490.667 571.095v26.239h-26.24l26.24-26.239zM337.614 597.333l74.667-74.667h-17.614v-149.333h96v-74.667h-170.667v298.667h17.614zM533.333 401.613l102.946-102.946h-102.946v102.946zM789.926 21.333l-747.26 747.26 63.407 63.407 747.26-747.26-63.407-63.407zM884.723 177.041c7.113 10.313 11.277 22.814 11.277 36.292v469.333c0 35.346-28.655 64-64 64h-516.905l76.8-76.8h427.305v-427.307l65.523-65.519zM265.080 669.867h-60.28v-443.733h504.013l76.8-76.8h-593.613c-35.346 0-64 28.655-64 64v469.333c0 34.132 26.718 62.023 60.381 63.899l76.699-76.699z" />
<glyph unicode="&#xe906;" glyph-name="close" d="M228.518 731.629c-20.053-20.053-20.046-52.556-0.005-72.609l211.027-211.007-211.022-211.021c-20.041-20.041-20.050-52.527-0.029-72.58 10.035-10.091 23.247-15.078 36.318-15.078 13.162 0 26.295 5.082 36.273 15.002l211.073 211.068 211.008-210.991c10.035-10.082 23.236-15.078 36.318-15.078 13.15 0 26.27 5.099 36.233 15.002l0.051 0.047c20.049 20.053 20.049 52.557 0 72.61l-211.012 211.012 211.012 211.011c20.041 20.053 20.053 52.561 0 72.614-20.049 20.050-52.557 20.050-72.606 0l-211.017-211.015-211.014 211.020c-20.053 20.041-52.556 20.048-72.609-0.005z" />
<glyph unicode="&#xe907;" glyph-name="digg" d="M437.333 554.667h-64v-213.333h64v213.333zM469.333 554.667v-213.333h106.667v-64h-106.667v-64h170.667v341.333h-170.667zM576 405.333h-42.667v85.333h42.667v-85.333zM682.667 554.667v-213.333h106.667v-64h-106.667v-64h170.667v341.333h-170.667zM789.333 405.333h-42.667v85.333h42.667v-85.333zM277.333 682.667v-128h-106.667v-213.333h170.667v341.333h-64zM277.333 405.333h-42.667v85.333h42.667v-85.333zM437.333 640h-64v-42.667h64v42.667z" />
<glyph unicode="&#xe908;" glyph-name="facebook" d="M581.333 568v96c0 26.496 21.504 48 48 48h48v120h-96c-79.535 0-144-64.464-144-144v-120h-96v-120h96v-384h144v384h96l48 120h-144z" />
<glyph unicode="&#xe909;" glyph-name="fullscreen" d="M298.667 362.667h-85.334v-213.333h213.333v85.333h-128v128zM213.333 533.333h85.334v128h128v85.334h-213.333v-213.333zM597.333 746.667v-85.334h128v-128h85.333v213.333h-213.333zM725.333 234.667h-128v-85.333h213.333v213.333h-85.333v-128z" />
<glyph unicode="&#xe90a;" glyph-name="iframe" d="M55.168 417.835l170.667-170.667c3.936-4.075 8.644-7.326 13.85-9.562s10.804-3.413 16.469-3.465c5.665-0.047 11.284 1.033 16.527 3.179 5.244 2.142 10.007 5.312 14.014 9.318s7.174 8.768 9.319 14.012c2.145 5.244 3.225 10.863 3.176 16.529s-1.226 11.264-3.462 16.469c-2.236 5.205-5.487 9.911-9.562 13.85l-140.501 140.501 140.501 140.5c4.075 3.936 7.325 8.644 9.562 13.85s3.413 10.804 3.462 16.469c0.049 5.665-1.030 11.284-3.176 16.527s-5.313 10.007-9.319 14.014c-4.006 4.006-8.77 7.174-14.014 9.319s-10.862 3.225-16.527 3.176c-5.665-0.049-11.264-1.226-16.469-3.462s-9.914-5.487-13.85-9.562l-170.667-170.666c-7.999-8-12.492-18.854-12.492-30.165 0-11.315 4.494-22.165 12.492-30.165zM798.165 648.831c-3.934 4.075-8.644 7.325-13.85 9.562s-10.803 3.413-16.469 3.462c-5.666 0.049-11.285-1.030-16.529-3.176-5.239-2.145-10.005-5.313-14.012-9.319s-7.172-8.77-9.318-14.014c-2.146-5.243-3.226-10.862-3.179-16.527 0.051-5.665 1.229-11.264 3.465-16.469s5.487-9.914 9.562-13.85l140.501-140.5-140.501-140.501c-4.075-3.938-7.326-8.644-9.562-13.85s-3.413-10.803-3.465-16.469c-0.047-5.666 1.033-11.285 3.179-16.529s5.312-10.005 9.318-14.012c4.006-4.006 8.772-7.177 14.012-9.318 5.244-2.146 10.863-3.226 16.529-3.179 5.666 0.051 11.264 1.229 16.469 3.465s9.916 5.487 13.85 9.562l170.667 170.667c8 8 12.493 18.85 12.493 30.165 0 11.311-4.493 22.165-12.493 30.165l-170.667 170.666zM556.331 758.357l-170.667-597.333c-3.107-10.876-1.769-22.537 3.719-32.427s14.678-17.195 25.55-20.309c3.823-1.058 7.768-1.6 11.733-1.621 9.271 0.004 18.291 3.034 25.69 8.623s12.774 13.436 15.313 22.353l170.667 597.333c1.779 5.455 2.441 11.212 1.941 16.928s-2.142 11.273-4.838 16.338c-2.692 5.065-6.383 9.535-10.846 13.142s-9.604 6.277-15.121 7.85c-5.521 1.573-11.298 2.017-16.99 1.306-5.696-0.711-11.187-2.564-16.145-5.446-4.962-2.883-9.293-6.736-12.727-11.33-3.439-4.594-5.914-9.834-7.279-15.407z" />
<glyph unicode="&#xe90b;" glyph-name="image" d="M675.554 660.026c12.079 12.081 28.766 19.838 44.066 19.838 31.125 0 59.503-28.377 59.503-59.505s-28.378-59.505-59.503-59.505c-31.194 0-59.507 27.56-59.507 59.505 0 16.036 3.878 28.105 15.441 39.667zM591.834 508.693c19.004 23.236 56.623 18.573 67.379-7.232l94.118-219.913c11.388-26.564-7.974-56.623-33.711-56.623h-419.471c-17.583 0-29.547 8.452-35.5 19.814-6.026 11.503-6.202 26.615 1.353 40.346l99.206 156.275c7.504 11.209 19.924 17.98 32.281 19.012 12.241 1.020 23.94-3.571 31.049-14.588l0.201-0.316 17.596-21.995c20.57-31.386 67.251-31.305 87.684 0.247l57.813 84.971zM79.715 682.797c0 81.28 67.976 149.203 148.324 149.203h571.603c81.318 0 149.026-67.942 145.685-148.901v-469.898c0-81.225-68.8-149.201-149.201-149.201h-567.208c-81.254 0-149.203 67.947-149.203 149.201v469.596zM228.039 756.959c-39.161 0-74.162-33.998-74.162-74.162v-473.99c0-39.164 33.998-74.163 74.162-74.163h571.603c40.738 0 69.769 34.726 69.769 74.163v473.99c0 39.161-34.001 74.162-74.163 74.162h-567.208z" />
<glyph unicode="&#xe90c;" glyph-name="link" d="M629.133 828.633c72.755 72.756 190.737 72.756 263.492 0s72.755-190.7 0-263.456l-221.231-221.228c-72.755-72.755-190.694-72.755-263.453 0-17.218 17.216-17.218 45.133 0 62.353 17.218 17.216 45.136 17.216 62.352 0 38.319-38.323 100.429-38.323 138.752 0l221.227 221.229c38.319 38.319 38.319 100.432 0 138.751-38.319 38.321-100.467 38.321-138.786 0l-120.644-120.641c-17.216-17.218-45.133-17.218-62.349 0-17.22 17.218-17.22 45.134 0 62.352l120.64 120.64zM332.516 531.985c72.756 72.756 190.697 72.756 263.456 0 17.216-17.216 17.216-45.133 0-62.353-17.22-17.216-45.137-17.216-62.353 0-38.319 38.323-100.433 38.323-138.752 0l-201.14-201.139c-28.818-28.817-35.964-71.091-21.432-106.59 4.791-11.699 11.938-22.665 21.44-32.171 38.318-38.34 100.424-38.345 138.78 0.009l100.551 100.553c17.22 17.22 45.137 17.22 62.353 0.004 17.22-17.22 17.22-45.137 0-62.353l-100.55-100.553c-72.791-72.789-190.742-72.794-263.491 0-72.754 72.755-72.756 190.699 0 263.454l201.138 201.139z" />
<glyph unicode="&#xe90d;" glyph-name="linkedin" d="M347.040 149.333h-123.84v398.809h123.84v-398.809zM285.053 602.543c-39.6 0-71.72 32.801-71.72 72.402 0 19.022 7.556 37.264 21.007 50.714s31.692 21.007 50.714 21.007c19.021 0 37.263-7.556 50.714-21.007s21.007-31.693 21.007-50.714c0-39.601-32.134-72.402-71.72-72.402zM810.534 149.333h-123.575v194.138c0 46.268-0.934 105.604-64.384 105.604-64.388 0-74.253-50.27-74.253-102.272v-197.47h-123.709v398.809h118.772v-54.399h1.732c16.533 31.33 56.922 64.399 117.175 64.399 125.333 0 148.373-82.537 148.373-189.737v-219.072h-0.132z" />
<glyph unicode="&#xe90e;" glyph-name="menu-icon" d="M298.039 469.837h90.353c56.207 0 101.771 45.564 101.771 101.772v90.353c0 56.207-45.564 101.772-101.771 101.772h-90.353c-56.207 0-101.772-45.565-101.772-101.772v-90.353c0-56.208 45.565-101.772 101.772-101.772zM264.282 661.962c0 18.643 15.114 33.757 33.757 33.757h90.353c18.643 0 33.757-15.114 33.757-33.757v-90.353c0-18.643-15.114-33.757-33.757-33.757h-90.353c-18.643 0-33.757 15.114-33.757 33.757v90.353zM298.039 128.503h90.353c56.207 0 101.771 45.564 101.771 101.773v90.351c0 56.209-45.564 101.773-101.771 101.773h-90.353c-56.207 0-101.772-45.564-101.772-101.773v-90.351c0-56.209 45.565-101.773 101.772-101.773zM264.282 320.627c0 18.645 15.114 33.758 33.757 33.758h90.353c18.643 0 33.757-15.113 33.757-33.758v-90.351c0-18.645-15.114-33.758-33.757-33.758h-90.353c-18.643 0-33.757 15.113-33.757 33.758v90.351zM639.373 128.503h90.351c56.209 0 101.773 45.564 101.773 101.773v90.351c0 56.209-45.564 101.773-101.773 101.773h-90.351c-56.209 0-101.773-45.564-101.773-101.773v-90.351c0-56.209 45.564-101.773 101.773-101.773zM605.615 230.276v90.351c0 18.645 15.117 33.758 33.758 33.758h90.351c18.645 0 33.758-15.113 33.758-33.758v-90.351c0-18.645-15.113-33.758-33.758-33.758h-90.351c-18.641 0-33.758 15.113-33.758 33.758zM639.373 469.837h90.351c56.209 0 101.773 45.564 101.773 101.772v90.353c0 56.207-45.564 101.772-101.773 101.772h-90.351c-56.209 0-101.773-45.565-101.773-101.772v-90.353c0-56.208 45.564-101.772 101.773-101.772zM605.615 661.962c0 18.643 15.117 33.757 33.758 33.757h90.351c18.645 0 33.758-15.114 33.758-33.757v-90.353c0-18.643-15.113-33.757-33.758-33.757h-90.351c-18.641 0-33.758 15.114-33.758 33.757v90.353z" />
<glyph unicode="&#xe90f;" glyph-name="next" d="M310.074 774.11c18.674 19.605 49.727 20.384 69.369 1.698l279.479-266.227c15.266-15.283 23.744-35.682 23.744-57.323 0-21.73-8.55-42.125-24.316-57.869l-278.916-265.655c-9.492-9.050-21.694-13.542-33.835-13.542-12.92 0-25.902 5.103-35.547 15.241-18.637 19.571-17.928 50.487 1.53 69.193l252.633 252.651-252.616 252.616c-19.462 18.707-20.168 49.647-1.526 69.219z" />
<glyph unicode="&#xe910;" glyph-name="normalscreen" d="M341.333 149.333h85.334v213.333h-213.333v-85.333h128v-128zM426.667 746.667h-85.334v-128h-128v-85.334h213.333v213.333zM810.667 533.333v85.334h-128v128h-85.333v-213.333h213.333zM682.667 277.333h128v85.333h-213.333v-213.333h85.333v128z" />
<glyph unicode="&#xe911;" glyph-name="pause" d="M298.667 746.667h85.333v-597.333h-85.333v597.333zM640 746.667h85.333v-597.333h-85.333v597.333z" />
<glyph unicode="&#xe912;" glyph-name="pinterest" d="M938.667 448c0-212.13-171.87-384-384-384-39.637 0-77.73 6.037-113.651 17.186 15.637 25.549 39.019 67.358 47.689 100.646 4.646 17.963 23.846 91.354 23.846 91.354 12.544-23.842 49.084-44.13 87.949-44.13 115.819 0 199.279 106.53 199.279 238.916 0 126.815-103.59 221.731-236.749 221.731-165.679 0-253.782-111.174-253.782-232.415 0-56.358 30.039-126.502 77.884-148.8 7.277-3.405 11.148-1.856 12.852 5.111 1.239 5.265 7.742 31.433 10.684 43.511 0.929 3.87 0.465 7.275-2.632 10.991-15.639 19.354-28.336 54.66-28.336 87.642 0 84.695 64.103 166.604 173.419 166.604 94.298 0 160.414-64.258 160.414-156.232 0-103.898-52.493-175.898-120.777-175.898-37.623 0-65.958 31.125-56.823 69.367 10.837 45.679 31.74 94.916 31.74 127.898 0 29.419-15.791 54.039-48.619 54.039-38.554 0-69.521-39.793-69.521-93.211 0-34.065 11.456-56.981 11.456-56.981s-37.934-160.725-44.902-190.763c-7.742-33.135-4.645-79.898-1.393-110.246-142.761 55.898-244.026 194.944-244.026 357.679 0 212.129 171.871 384 384 384s384-171.871 384-384z" />
<glyph unicode="&#xe913;" glyph-name="play" d="M743.287 496.23c33.003-21.581 32.896-74.782 0-96.363l-368.771-242.658c-33.21-21.931-75.85 4.433-75.85 48.183v485.43c0 48.765 45.887 67.898 75.85 48.182l368.771-242.774zM384 630.596v-364.996l277.278 182.455-277.278 182.541z" />
<glyph unicode="&#xe914;" glyph-name="play-fill" d="M682.667 448l-298.667 298.667v-597.333l298.667 298.667z" />
<glyph unicode="&#xe915;" glyph-name="prev" d="M671.258 774.11c-18.671 19.605-49.724 20.384-69.367 1.698l-279.481-266.227c-15.265-15.283-23.743-35.682-23.743-57.323 0-21.73 8.55-42.125 24.315-57.869l278.917-265.655c9.493-9.050 21.696-13.542 33.835-13.542 12.919 0 25.903 5.103 35.546 15.241 18.637 19.571 17.929 50.487-1.527 69.193l-252.634 252.651 252.617 252.616c19.46 18.707 20.169 49.647 1.523 69.219z" />
<glyph unicode="&#xe916;" glyph-name="reddit" d="M777.237 524.57c-21.559 0-40.533-9.071-54.498-23.211-51.345 36.069-120.576 59.279-197.291 61.754l39.851 182.215 126.891-28.9c0-31.516 25.314-57.259 56.375-57.259 31.659 0 57.118 26.425 57.118 57.97s-25.289 57.97-57.088 57.97c-22.161 0-41.276-13.568-50.803-32.114l-140.147 31.517c-7.053 1.905-13.965-3.215-15.842-10.383l-43.746-200.875c-76.119-3.214-144.614-26.396-196.126-62.493-13.966 14.737-33.678 23.808-55.239 23.808-79.985 0-106.183-108.911-32.939-146.146-2.588-11.52-3.755-23.808-3.755-36.066 0-122.342 135.823-221.47 302.591-221.47 167.484 0 303.305 99.127 303.305 221.47 0 12.258-1.28 25.114-4.437 36.663 71.765 37.376 45.342 145.493-34.219 145.549zM329.976 370.688c0 32.111 25.316 57.967 57.117 57.967 31.061 0 56.406-25.685 56.406-57.967 0-31.548-25.316-57.259-56.406-57.259-31.659-0.145-57.117 25.711-57.117 57.259zM638.285 234.21c-52.365-53.133-200.132-53.133-252.529 0-5.775 5.12-5.775 14.165 0 19.998 5.035 5.12 13.966 5.12 19.001 0 39.992-41.617 172.66-42.325 214.388 0 5.035 5.12 13.965 5.12 18.999 0 5.888-5.862 5.888-14.908 0.141-19.998zM637.12 313.314c-31.061 0-56.375 25.685-56.375 57.203 0 32.111 25.314 57.967 56.375 57.967 31.659 0 57.118-25.685 57.118-57.967-0.145-31.377-25.459-57.203-57.118-57.203z" />
<glyph unicode="&#xe917;" glyph-name="settings" d="M449.442 789.333h125.227c25.438 0 48.375-18.253 51.836-44.43l8.939-60.671c8.265-4.128 16.35-8.716 24.23-13.74l60.186 23.53c23.881 8.567 51.247-0.482 64.026-22.838l62.622-105.511c12.629-22.481 7.347-50.477-13.188-66.281l-50.065-38.11c0.256-4.211 0.418-8.67 0.418-13.282 0-4.604-0.154-9.067-0.405-13.295l50.035-38.101c20.399-15.765 25.882-43.669 13.38-66.005l-62.95-106.057c-12.787-22.468-40.538-31.42-64.132-22.498l-60.049 23.479c-7.996-5.090-16.017-9.66-24.128-13.739l-8.973-60.958c-3.456-26.039-26.509-44.16-51.806-44.16h-125.231c-25.435 0-48.37 18.253-51.835 44.425l-8.938 60.663c-8.263 4.13-16.355 8.717-24.24 13.73l-60.322-23.565c-23.783-8.393-51.145 0.444-63.918 22.891l-62.63 105.523c-12.548 22.426-7.357 50.402 13.164 66.227l50.132 38.187c-0.271 4.557-0.413 8.943-0.413 13.252s0.142 8.704 0.422 13.278l-50.015 38.063c-20.576 15.838-26.378 44.562-12.826 67.002l62.357 105.085c12.751 22.408 40.434 31.52 64.178 22.484l60.006-23.462c7.992 5.089 16.015 9.659 24.126 13.74l8.972 60.985c3.456 26.036 26.509 44.159 51.81 44.159zM556.476 715.043l-87.467 0.985-10.436-62.3c-2.005-12.933-10.769-23.496-22.524-28.244l-0.107-0.043c-14.643-5.829-29.276-14.031-44.787-25.378l-0.078-0.057c-10.165-7.372-23.464-9.184-35.35-4.511l-59.194 23.154-44.169-72.553 49.734-39.497c10.036-7.774 15.503-20.348 13.838-33.31-1.339-10.53-1.908-18.449-1.908-25.289 0-6.874 0.55-14.827 1.903-25.246 1.692-13.039-3.863-25.754-14.062-33.527l-50.33-38.31 43.22-72.819 61.191 22.481c4.519 1.745 9.050 2.458 13.314 2.458 7.753 0 15.63-2.432 22.239-7.407 14.086-10.543 29.037-18.97 44.435-25.122 11.977-4.774 20.723-15.518 22.686-28.463l0.017-0.102 8.986-61.001 87.445-0.969 10.411 62.259c2.005 13.013 10.85 23.603 22.66 28.301 14.618 5.82 29.231 14.042 44.817 25.404l0.073 0.051c10.146 7.339 23.45 9.122 35.268 4.501l59.191-23.151 44.855 73.681-50.155 38.204c-10.193 7.765-15.753 20.467-14.071 33.498 0.998 7.761 1.907 16.252 1.907 25.28 0 8.998-0.909 17.51-1.907 25.267-1.681 13.065 3.891 25.754 14.076 33.515l50.287 38.276-43.213 72.809-61.184-22.477c-11.925-4.587-25.318-2.671-35.477 4.908-14.131 10.583-29.094 19.020-44.471 25.146-11.985 4.772-20.715 15.511-22.682 28.462l-0.017 0.11-8.964 61.027zM512.004 566.854c-65.557 0-118.858-53.301-118.858-118.858s53.301-118.857 118.858-118.857c65.557 0 118.857 53.299 118.857 118.857s-53.299 118.858-118.857 118.858zM455.317 447.996c0 31.245 25.442 56.687 56.687 56.687s56.683-25.442 56.683-56.687c0-31.245-25.438-56.683-56.683-56.683s-56.687 25.438-56.687 56.683z" />
<glyph unicode="&#xe918;" glyph-name="share" d="M888.090 611.49l-178.108 170.322c-7.697 7.364-19.243 9.548-29.252 5.539-10.022-4-16.55-13.402-16.55-23.828v-77.315c-88.294-5.608-132.386-40.791-140.352-47.801-110.8-88.627-98.546-209.479-94.822-233.521 0.051-0.346 0.107-0.695 0.171-1.041l3.58-19.785c1.924-10.633 10.509-18.987 21.534-20.954 1.647-0.294 3.294-0.439 4.924-0.439 9.318 0 18.116 4.663 23.019 12.535l10.731 17.186c58.662 93.76 131.153 108.86 171.217 108.988v-80.213c0-10.453 6.562-19.866 16.623-23.855 10.061-3.981 21.615-1.745 29.278 5.653l178.108 172.039c10.453 10.099 10.411 26.443-0.098 36.49zM393.135 707.688h-186.198c-20.032 0.001-36.27-17.91-36.27-40.006v-489.015c0-22.097 16.237-40.009 36.269-40.009h567.46c20.032 0 36.271 17.911 36.271 40.009v112.474c0 22.097-16.239 40.009-36.271 40.009s-36.267-17.911-36.267-40.009v-72.465h-494.922v408.998h149.928c20.032 0 36.271 17.91 36.271 40.007s-16.239 40.007-36.271 40.007z" />
<glyph unicode="&#xe919;" glyph-name="sound" d="M682.671 448c0 66.94-38.686 124.778-94.818 152.654v-305.494c56.132 28.066 94.818 85.905 94.818 152.841zM512 789.331v-682.668l-204.049 202.675h-137.284v277.333h137.284l204.049 202.66zM426.667 591.783l-80.396-90.445h-90.271v-106.667h90.271l80.396-90.445v287.557zM587.853 780.612v-78.316c109.606-32.617 189.632-134.068 189.632-254.291 0-120.226-80.026-221.679-189.632-254.293v-78.319c151.893 34.513 265.485 170.099 265.485 332.612 0 162.51-113.591 298.096-265.485 332.608z" />
<glyph unicode="&#xe91a;" glyph-name="sound-off" d="M682.287 436.506c0.252 3.797 0.384 7.633 0.384 11.499 0 66.94-38.686 124.777-94.818 152.652v-69.721l94.434-94.43zM587.853 424.145v-128.981c27.78 13.888 51.285 35.072 67.947 61.039l-67.947 67.942zM799.936 106.667l-629.269 629.271 53.396 53.396 629.271-629.269-53.397-53.397zM819.354 299.435c21.769 44.881 33.984 95.275 33.984 148.561 0 162.511-113.591 298.097-265.485 332.608v-78.316c109.606-32.617 189.632-134.068 189.632-254.292 0-31.885-5.628-62.443-15.945-90.752l57.813-57.809zM723.87 288.124c-33.711-44.531-81.161-78.097-136.017-94.421v-78.319c76.126 17.297 142.63 59.981 190.037 118.72l-54.020 54.020zM512 606.791v182.542l-91.583-90.959 91.583-91.583zM366.839 645.161l-58.889-58.488h-137.284v-277.332h137.284l204.049-202.675v393.335l-85.333 85.332v-281.103l-80.396 90.445h-90.271v106.667h90.271l77.36 87.028-56.791 56.791z" />
<glyph unicode="&#xe91b;" glyph-name="tumblr" d="M682.667 146.658l-28.646 97.425c-11.166-6.089-32.354-11.349-47.983-11.921h-2.219c-45.423 0-54.319 38.972-54.711 67.443v212.48h119.492v103.339h-119.053v173.909h-87.164c-1.438 0-3.947-1.451-4.288-5.091-4.928-53.277-26.773-146.66-116.762-184.007v-88.149h59.88v-223.061c0-75.52 48.029-182.357 174.275-182.357l-0.269 0.055h4.412c43.546 0.853 92.237 21.845 103.036 39.936z" />
<glyph unicode="&#xe91c;" glyph-name="twitter" d="M817.058 597.801c0.486-6.533 0.486-13.068 0.486-19.601 0-199.264-158.374-428.867-447.838-428.867-89.178 0-172.020 24.734-241.706 67.665 12.671-1.399 24.852-1.865 38.010-1.865 73.583 0 141.32 23.799 195.412 64.397-69.199 1.404-127.188 44.804-147.169 104.538 9.747-1.399 19.493-2.334 29.727-2.334 14.132 0 28.265 1.869 41.421 5.133-72.122 13.999-126.215 74.667-126.215 147.933v1.866c20.954-11.2 45.321-18.198 71.147-19.132-42.396 27.067-70.172 73.267-70.172 125.534 0 28 7.796 53.666 21.441 76.066 77.483-91.466 193.951-151.199 324.548-157.733-2.436 11.2-3.895 22.865-3.895 34.532 0 83.068 70.17 150.734 157.402 150.734 45.316 0 86.251-18.2 115.004-47.6 35.571 6.533 69.683 19.133 99.9 36.4-11.699-35.001-36.548-64.401-69.201-83.066 31.676 3.265 62.379 11.667 90.641 23.333-21.44-29.865-48.243-56.465-78.942-77.932z" />
<glyph unicode="&#xe91d;" glyph-name="vimeo" d="M903.625 793.831c-71.778 78.721-291.836 80.701-367.787-173.732-8.614-28.891 20.151-55.899 47.991-43.171 15.104 6.87 30.178 10.27 44.826 10.27 11.012 0 14.831-2.176 16.081-3.27 1.097-0.961 1.515-2.074 2.172-5.494l0.017-0.080c2.278-11.897-0.26-28.561-6.775-48.135-6.43-19.319-16.358-40.405-27.657-60.642-11.281-20.211-23.812-39.364-35.319-54.793-8.141-10.918-15.531-19.639-21.431-25.545-1.446 2.679-2.965 5.892-4.531 9.651-3.362 8.047-6.729 18.014-10.048 29.419-6.635 22.81-12.932 50.82-18.603 79.642-11.332 57.606-20.036 117.768-23.919 144.597l-0.107 0.734v0.002c-0.973 6.735-1.673 11.544-1.997 13.332-10.692 69.69-33.707 111.85-62.387 135.744-28.799 23.995-61.975 28.468-90.488 25.606-29.734-2.87-62.275-21.703-95.897-47.395-33.826-25.848-70.166-59.79-107.556-94.713l-0.001-0.001-0.227-0.212c-16.898-15.783-34.046-31.799-51.369-47.463-13.798-12.519-15.772-33.736-4.524-48.647l37.623-49.855c11.448-15.226 32.737-18.648 48.19-7.473 25.408 18.297 38.688 26.75 45.278 30.586 3.034-2.083 6.575-5.996 10.467-12.608 5.106-8.677 10.052-20.684 14.961-35.596 9.812-29.815 18.929-69.5 29.037-113.536l0.114-0.495c16.915-73.698 36.515-159.091 66.527-226.086 29.818-66.569 71.764-119.006 135.207-119.006 24.785 0 52.698 9.003 81.852 24.299 29.261 15.356 60.373 37.372 91.721 64.175 62.694 53.611 126.967 126.921 179.989 206.123 52.979 79.151 95.066 164.698 112.892 242.848 17.788 77.979 11.759 150.43-34.321 200.919zM654.246 584.352c-0.009 0.024-0.017 0.048-0.021 0.072l-35.802 10.805c-0.034-0.003-0.068-0.007-0.102-0.010l35.925-10.866zM696.026 633.005c-16.858 18.169-42.33 26.102-70.076 25.863 31.040 62.408 77.679 92.911 121.058 103.701 23.241 5.78 45.581 5.915 64.196 2.23 18.786-3.719 33.011-11.159 40.866-19.765 28.015-30.743 30.234-83.332 12.023-148.514-18.031-64.535-55.317-138.447-101.538-208.463-46.191-69.973-100.983-135.573-153.643-183.578-26.334-24.004-51.959-43.447-75.554-56.845-23.727-13.474-44.698-20.433-61.901-20.433-14.255 0-27.025 6.528-39.006 19.366-12.114 12.983-22.973 31.987-32.945 55.642-19.951 47.33-35.314 110.66-50.852 174.81l-0.13 0.538c-15.233 62.895-30.653 126.558-50.749 174.501-10.080 24.047-21.594 44.796-35.334 59.642-13.873 14.991-30.461 24.397-50.234 24.397-8.611 0-16.973-2.002-35.115-12.875l2.49 2.348c28.247 26.636 62.366 58.804 94.186 84.777 15.912 12.988 31.067 24.276 44.481 32.501 13.681 8.389 24.547 12.952 32.108 13.679l0.059 0.006c16.050 1.655 28.137-2.115 37.567-8.809 9.617-6.827 17.050-17.117 22.794-29.327 11.577-24.606 15.27-54.667 17.44-72.652l0.017-0.132c0.422-3.498 0.802-6.653 1.178-9.118 0.192-1.25 0.405-2.469 0.653-3.55 0.119-0.526 0.299-1.264 0.576-2.071 16.964-116.684 32.751-195.609 50.944-245.499 9.122-25.011 19.11-43.49 30.746-55.808 11.921-12.617 25.562-18.709 41.003-18.709 8.828 0.013 17.843 3.337 26.509 8.418 8.738 5.12 17.707 12.369 26.603 21.052 17.796 17.37 36.032 41.195 52.412 67.524 16.401 26.364 31.113 55.514 41.745 83.674 10.59 28.041 17.353 55.665 17.353 78.816 0 25.26-7.1 46.672-21.931 62.66z" />
<glyph unicode="&#xe91e;" glyph-name="watch-later" d="M512 789.333c-188.228 0-341.333-153.105-341.333-341.333s153.105-341.333 341.333-341.333c188.228 0 341.333 153.105 341.333 341.333s-153.105 341.333-341.333 341.333zM256 448c0 141.141 114.859 256 256 256s256-114.859 256-256c0-141.141-114.859-256-256-256s-256 114.859-256 256zM554.667 652.802h-85.333v-222.142l127.881-134.426 60.301 60.301-102.848 108.766v187.501z" />
<glyph unicode="&#xe91f;" glyph-name="youtube" d="M511.963 75.636c-0.084 0-0.182 0-0.275 0-30.897 0.214-304.054 2.718-381.444 23.785-54.086 14.634-96.781 57.553-111.359 111.993-20.25 76.511-18.961 223.817-18.82 235.58-0.133 11.707-1.438 160.231 18.758 237.371 0.023 0.071 0.039 0.149 0.063 0.22 14.414 53.819 58.070 98.070 111.227 112.741 0.133 0.039 0.273 0.071 0.406 0.11 76.516 20.238 350.213 22.715 381.171 22.927h0.554c30.981-0.212 304.863-2.72 381.542-23.816 53.946-14.593 96.61-57.46 111.225-111.829 21.006-77.195 19.065-226.041 18.851-238.605 0.149-12.376 1.378-158.36-18.758-235.257-0.014-0.079-0.037-0.149-0.056-0.219-14.583-54.44-57.27-97.364-111.421-112.012-0.070-0.023-0.149-0.037-0.219-0.061-76.507-20.233-350.208-22.71-381.165-22.928-0.093 0-0.186 0-0.279 0zM96.15 663.718c-17.781-68.090-16.101-214.719-16.086-216.197v-1.062c-0.531-40.665 1.336-158.431 16.094-214.206 7.156-26.712 28.211-47.867 54.914-55.096 57.101-15.542 279.578-20.433 360.891-21.006 81.524 0.573 304.328 5.329 361.007 20.252 26.619 7.252 47.602 28.337 54.807 55.077 14.774 56.595 16.626 173.787 16.086 214.193 0 0.424 0 0.849 0.005 1.273 0.735 41.153-0.707 160.295-16.021 216.52-0.019 0.055-0.033 0.11-0.042 0.165-7.187 26.827-28.248 47.985-54.952 55.211-56.548 15.56-279.384 20.435-360.89 21.009-81.469-0.574-304.054-5.323-360.906-20.23-26.195-7.312-47.727-29.225-54.906-55.903zM966.423 221.11v0zM410.002 284.97v326.069l280.002-163.038-280.002-163.030z" />
<glyph unicode="&#xe920;" glyph-name="zoomin" d="M464.132 628.133c-22.135 0-39.999-17.864-39.999-40v-52.933h-52.933c-22.136 0-40-17.866-40-40.002s17.864-40 40-40h52.933v-52.932c0-22.135 17.864-40 39.999-40s40 17.865 40 40v52.932h52.932c22.14 0 40 17.865 40 40 0 22.178-18.035 40.002-40 40.002h-52.932v52.933c0 22.136-17.865 40-40 40zM464.132 786.935c-161.213 0-291.599-130.676-291.599-291.733 0-161.067 130.527-291.733 291.731-291.733 66.091 0 127.036 21.965 175.932 59.034l142.985-142.985c6.541-6.626 17.143-9.83 26.313-10.359 9.489-0.555 21.658 1.515 30.417 10.385 15.462 15.659 15.462 40.922-0.192 56.576l-143.019 143.019c37.077 48.905 59.166 109.965 59.166 176.064 0 161.065-130.526 291.733-291.733 291.733zM252.8 495.202c0 116.787 94.659 211.333 211.465 211.333 116.796 0 211.337-94.664 211.337-211.333 0-116.663-94.669-211.332-211.337-211.332-116.806 0-211.465 94.545-211.465 211.332z" />
<glyph unicode="&#xe921;" glyph-name="zoomout" d="M504.132 535.199l-132.932 0.002c-22.136 0-40-17.863-40-39.998s17.864-40 40-40h185.865c22.14 0 40 17.865 40 40 0 22.174-18.035 39.998-40 39.998l-52.932-0.002zM464.132 786.935c-161.213 0-291.599-130.676-291.599-291.733 0-161.067 130.527-291.733 291.731-291.733 66.091 0 127.036 21.965 175.932 59.034l142.985-142.985c6.541-6.626 17.143-9.83 26.313-10.359 9.489-0.555 21.658 1.515 30.417 10.385 15.462 15.659 15.462 40.922-0.192 56.576l-143.019 143.019c37.077 48.905 59.166 109.965 59.166 176.064 0 161.065-130.526 291.733-291.733 291.733zM252.8 495.202c0 116.787 94.659 211.333 211.465 211.333 116.796 0 211.337-94.664 211.337-211.333 0-116.663-94.669-211.332-211.337-211.332-116.806 0-211.465 94.545-211.465 211.332z" />
<glyph unicode="&#xe922;" glyph-name="wheel-blooked" d="M797.835 812.527c-9.651 12.637-20.176 24.686-31.547 36.054-67.441 67.441-158.91 105.33-254.288 105.33-95.375 0-186.845-37.888-254.287-105.33s-105.329-158.912-105.329-254.288v-292.571c0-35.906 5.37-71.259 15.665-104.982l71.872 70.272c-1.461 11.454-2.204 23.044-2.204 34.71v292.571c0 72.745 28.898 142.51 80.336 193.949s121.202 80.336 193.947 80.336c72.748 0 142.512-28.898 193.949-80.336 11.176-11.175 21.285-23.214 30.267-35.961l61.619 60.247zM822.034 776.517l-63.47-62.060c8.21-16.853 14.687-34.523 19.306-52.732l67.917 66.407c-6.689 16.68-14.629 32.856-23.753 48.384zM860.537 682.884l-74.69-73.033c0.293-5.167 0.439-10.355 0.439-15.559v-292.571c0-72.744-28.899-142.508-80.336-193.949-51.438-51.438-121.201-80.333-193.949-80.333-72.744 0-142.508 28.895-193.947 80.333-7.583 7.585-14.676 15.565-21.259 23.896l-61.273-59.911c6.994-8.408 14.396-16.527 22.192-24.324 67.442-67.441 158.912-105.329 254.287-105.329 95.378 0 186.847 37.888 254.288 105.329s105.329 158.914 105.329 254.288v292.571c0 30.132-3.781 59.874-11.081 88.591zM210 106.478l62.663 61.268c-8.946 15.982-16.266 32.816-21.853 50.242l-66.304-64.83c7.32-16.139 15.837-31.744 25.494-46.68zM554.668 574.746v62.219h-85.332v-145.656l85.332 83.438zM455.735 418.337l13.601-13.634v26.935l85.332 83.434v-71.607l-123.732-120.986-36.239 36.176 61.038 59.681zM425.596 448.545l-42.555 42.653-60.506-60.507 41.962-41.889 61.098 59.743zM461.133 292.334l15.594-15.568 4.721-4.963 0.26-0.263c3.968-3.997 8.686-7.172 13.886-9.337 5.2-2.169 10.778-3.284 16.41-3.284s11.209 1.115 16.406 3.284c5.2 2.165 9.922 5.336 13.89 9.337l4.977 5.226 154.192 153.925-48.863 48.863-191.473-187.22zM24.768-3.024l959.998 938.667 35.796-36.608-960-938.667-35.795 36.608z" />
<glyph unicode="&#xe923;" glyph-name="wheel-unblooked" d="M512 953.911c-95.375 0-186.845-37.888-254.287-105.33s-105.329-158.912-105.329-254.288v-292.571c0-95.375 37.888-186.847 105.329-254.288s158.912-105.329 254.287-105.329c95.378 0 186.847 37.888 254.288 105.329s105.329 158.914 105.329 254.288v292.571c0 95.376-37.888 186.847-105.329 254.288s-158.91 105.33-254.288 105.33zM318.053 788.242c51.439 51.438 121.202 80.336 193.947 80.336 72.748 0 142.512-28.898 193.949-80.336s80.336-121.204 80.336-193.949v-292.571c0-72.744-28.899-142.508-80.336-193.949-51.438-51.438-121.201-80.333-193.949-80.333-72.744 0-142.508 28.895-193.947 80.333-51.438 51.441-80.336 121.205-80.336 193.949v292.571c0 72.745 28.898 142.51 80.336 193.949zM554.668 636.964h-85.332v-232.261l-86.294 86.495-60.506-60.507 154.191-153.925 4.721-4.963 0.26-0.263c3.968-3.997 8.686-7.172 13.886-9.337 5.2-2.169 10.778-3.284 16.41-3.284s11.209 1.115 16.406 3.284c5.2 2.165 9.922 5.336 13.89 9.337l4.977 5.226 154.192 153.925-60.507 60.507-86.294-86.495v232.261z" />
<glyph unicode="&#xe924;" glyph-name="phone-blooked" d="M832 845.933v18.049c0 25.461-10.116 49.879-28.116 67.882-18.004 18.003-42.423 28.118-67.884 28.118h-448c-25.461 0-49.879-10.114-67.882-28.118s-28.118-42.421-28.118-67.882v-643.826l64 62.577v581.248c0 8.487 3.372 16.626 9.373 22.627s14.141 9.373 22.627 9.373h65.28v-48c0-8.487 3.372-16.626 9.373-22.627 6.002-6.001 14.139-9.373 22.627-9.373h253.44c8.488 0 16.625 3.372 22.627 9.373s9.373 14.141 9.373 22.627v48h65.28c8.488 0 16.625-3.372 22.627-9.373s9.373-14.14 9.373-22.627v-80.628l64 62.578zM832 786.259l-64-62.578v-71.608l64 62.578v71.608zM832 654.979l-64-62.576v-560.421c0-8.488-3.372-16.625-9.373-22.627s-14.139-9.373-22.627-9.373h-448c-8.487 0-16.626 3.372-22.627 9.373s-9.373 14.139-9.373 22.627v59.798l-63.961-62.541c0.699-24.466 10.723-47.784 28.078-65.137 18.004-18.004 42.422-28.12 67.882-28.12h448c25.461 0 49.88 10.116 67.884 28.12 18 18 28.116 42.419 28.116 67.88v622.997zM192 88.872l64 62.581v71.607l-64-62.577v-71.611zM606.72 895.982h-189.44v-16h189.44v16zM554.668 574.746v62.219h-85.332v-145.656l85.332 83.438zM455.735 418.337l13.601-13.634v26.935l85.332 83.434v-71.607l-123.732-120.986-36.239 36.176 61.038 59.681zM425.596 448.545l-42.555 42.653-60.506-60.507 41.962-41.889 61.098 59.743zM461.133 292.334l15.594-15.568 4.721-4.963 0.26-0.263c3.968-3.997 8.686-7.172 13.886-9.337 5.2-2.169 10.778-3.284 16.41-3.284s11.209 1.115 16.406 3.284c5.2 2.165 9.922 5.336 13.89 9.337l4.977 5.226 154.192 153.925-48.863 48.863-191.473-187.22zM24.768-3.024l959.998 938.667 35.796-36.608-960-938.667-35.795 36.608z" />
<glyph unicode="&#xe925;" glyph-name="phone-unblooked" d="M288-64.018h448c25.461 0 49.88 10.116 67.884 28.12 18 18 28.116 42.419 28.116 67.88v832c0 25.461-10.116 49.879-28.116 67.882-18.004 18.003-42.423 28.118-67.884 28.118h-448c-25.461 0-49.879-10.114-67.882-28.118s-28.118-42.421-28.118-67.882v-832c0-25.461 10.114-49.88 28.118-67.88 18.004-18.004 42.422-28.12 67.882-28.12zM417.28 895.982h189.44v-16h-189.44v16zM256 863.982c0 8.487 3.372 16.626 9.373 22.627s14.141 9.373 22.627 9.373h65.28v-48c0-8.487 3.372-16.626 9.373-22.627 6.002-6.001 14.139-9.373 22.627-9.373h253.44c8.488 0 16.625 3.372 22.627 9.373s9.373 14.141 9.373 22.627v48h65.28c8.488 0 16.625-3.372 22.627-9.373s9.373-14.14 9.373-22.627v-832c0-8.488-3.372-16.625-9.373-22.627s-14.139-9.373-22.627-9.373h-448c-8.487 0-16.626 3.372-22.627 9.373s-9.373 14.139-9.373 22.627v832zM554.668 636.964h-85.332v-232.261l-86.294 86.495-60.506-60.507 154.191-153.925 4.721-4.963 0.26-0.263c3.968-3.997 8.686-7.172 13.886-9.337 5.2-2.169 10.778-3.284 16.41-3.284s11.209 1.115 16.406 3.284c5.2 2.165 9.922 5.336 13.89 9.337l4.977 5.226 154.192 153.925-60.507 60.507-86.294-86.495v232.261z" />
</font>
</defs>
</svg>
